<?xml version="1.0" standalone="no"?>
<!DOCTYPE svg PUBLIC "-//W3C//DTD SVG 1.1//EN" "http://www.w3.org/Graphics/SVG/1.1/DTD/svg11.dtd">
<svg xmlns="http://www.w3.org/2000/svg">
<metadata>Copyright (C) 2018 by original authors @ fontello.com</metadata>
<defs>
<font id="osca3" horiz-adv-x="1000" >
<font-face font-family="osca3" font-weight="400" font-stretch="normal" units-per-em="1000" ascent="850" descent="-150" />
<missing-glyph horiz-adv-x="1000" />
<glyph glyph-name="user-pin" unicode="&#xe800;" d="M394-150c22 7 22 15 37 29 7 15 22 22 29 29l95 95c102 117 233 256 248 424-37 0-29 0-51-15-66-36-44-7-66-73-80-226-387-263-525-80-176 226 22 533 292 489 51-15 65-29 102-37 7 30 36 59 73 66l-37 29c-44 22-102 37-153 44-204 15-409-124-438-350-22-197 110-343 219-460l110-124c21-22 51-37 65-66z m256 606c-8-22-22-44-30-73 37 14 88 44 117 58 66 37 95 8 154 22 51 22 43 66 43 124 0 168-7 161-189 161-59 0-117 7-146-29-30-30-15-110-22-154 0-102 43-87 73-109z m-8 66h139c7 0 29-8 22 14-7 7-15 7-37 7h-124v-21z m0 146h227v14l-227 7v-21z m0-103h227v22h-227v-22z m0 51h227v22h-227v-22z m-365-131c-7-7-14 0-21-15-8-7 0-21 0-29 14-29 14-29 36-44 22-72 44-51 37-102h-73c-37 0-37-7-59-14 7-22 51-59 80-73 81-37 168-37 249 0 21 14 73 51 80 73-51 22-66 14-131 14 0 30 7 37 14 51 15 22 15 30 22 51 22 8 29 22 36 44 15 37-14 44-14 44h-7c73 226-154 204-197 183-8-8-8-15-22-22s-15-8-22-15c-29-36-22-102-8-146z" horiz-adv-x="934" />

<glyph glyph-name="paragraph" unicode="&#xe801;" d="M126 397c0 43 21 64 53 85 42-21 116-42 168-64 74-21 106-63 106-105 0-31-21-63-42-84-32 21-95 42-158 63-85 32-127 63-127 105z m390 411c-53 32-116 42-190 42-158 0-273-74-273-200 0-42 21-95 52-116-73-42-105-105-105-158 0-126 105-179 253-221 105-31 147-63 147-115s-53-85-137-85c-73 0-147 32-189 53l-32-105c63-43 148-53 232-53 126 0 273 53 273 200 0 63-31 105-52 126 52 42 84 95 84 158 0 127-95 179-232 221-94 32-147 63-147 116 0 42 42 74 126 74 74 0 127-21 169-42l21 105z" horiz-adv-x="579" />

<glyph glyph-name="user" unicode="&#xe802;" d="M73 468h472c40 0 73-33 73-73v-472c0-41-33-73-73-73h-57v333s-8 9-16 9l-9-9v-333h-308v333s0 9-9 9-8-9-8-9v-333h-65c-40 0-73 32-73 73v472c0 40 33 73 73 73z m236 382c98 0 179-81 179-179s-81-179-179-179-179 82-179 179 81 179 179 179z" horiz-adv-x="618" />

<glyph glyph-name="time" unicode="&#xe803;" d="M603 770h-116m0 0v-27c111-9 214-58 290-143 80-89 125-201 116-321-9-241-205-429-447-429h-17c-121 4-228 54-308 143-85 89-126 201-121 321 9 228 183 407 406 429v-67 98h-116c-13 0-22 18-22 36 0 22 9 40 22 40h313c13 0 22-18 22-40s-9-40-22-40m-174-808c0-5 4-5 13-5 4 0 9 0 9 5 179 4 321 143 330 321v22c-4 175-143 317-321 322h-9l4 4c-4 5-9 5-13 5s-13 0-13-5v-4c-170-9-308-143-313-317h-9c-4 0-9-5-9-14 0-4 5-8 9-8h9c5-175 139-313 313-326z m201 317h-188c-9 0-13 9-13 13v4l4 152c0 5 5 9 13 9 5 0 14-4 14-9l-5-143h175c8 0 13-4 13-13s-5-13-13-13z m-188 254c-4 0-9 5-9 5v75s5 5 9 5 9-5 9-5v-75c0-5-5-5-9-5z m313-245h-72c-4 0-4 4-4 13 0 4 0 9 4 9h76v-22h-4z m-313-309c-4 0-9 5-9 5v76s5 4 9 4 9-4 9-4v-76s-5-5-9-5z m-241 309h-71c-5 0-5 4-5 13 0 4 0 9 5 9h71c4 0 4-5 4-14 0-4 0-8-4-8z m228 8v5h4v4h22" horiz-adv-x="897" />

<glyph glyph-name="settings" unicode="&#xe804;" d="M500 255v-2h-6v-271c0-31-10-57-24-75s-35-31-57-31h-20c-23 0-41 12-57 31-14 18-24 44-24 75v271h-6c-19 16-45 20-83 73-51 71-51 172-2 245 16 22 58 66 85 71v-201c8-4 91-38 95-40 8 0 87 34 97 40l2 201c6 4 32-19 39-23 14-12 24-24 34-32 12-24 28-35 40-83 27-103-28-215-113-249z m20-128c16 6 31 15 45 21 16-11 40-49 57-47 10 4 36 34 46 43 16 16 28 30 45 44 56 61 46 32-8 97 4 14 16 35 24 65 16 0 63-4 71 4 6 4 6 4 6 20-2 203 22 166-77 170-6 27-18 45-24 65 22 28 56 45 42 65l-117 115c-23 19-41-28-65-40-12 4-20 8-33 14-10 4-22 6-32 12 0 39 6 61-10 75h-174c-18-16-8-28-10-75-4-4-63-26-65-26-67 54-34 71-124-18-64-67-74-61-44-91 10-9 22-21 28-31l-24-65c-24 0-69 4-75-8-2-10-2-168 0-178 6-12 53-8 75-8l24-65c-8-12-40-38-44-46-6-16 20-35 38-53l67-67c38-38 28-14 79 27 12-2 28-13 44-19v-145c0-37 13-69 31-94 20-24 46-38 77-38h20c30 0 57 14 77 38 18 25 30 57 30 94v145z" horiz-adv-x="808" />

<glyph glyph-name="checklist" unicode="&#xe805;" d="M62 701h113v21c0 8 6 16 14 16h16v10c0 28 12 54 32 72s46 30 76 30c28 0 57-12 77-30s32-44 32-72v-10h16c8 0 14-8 14-16v-21h104c16 0 32-8 44-20 10-10 19-26 19-44v-723c0-18-9-34-19-44-12-12-28-20-44-20h-494c-16 0-32 8-44 20-10 10-18 26-18 44v723c0 18 8 34 18 44 12 12 28 20 44 20z m107-255l-32 31c0 2-4 2-6 0s-2-4 0-6l32-31c2-2 4-2 6 0s2 4 0 6z m-22-124l26 30c0 2 4 2 6 0s2-6 0-8l-28-32c-2-2-4-2-6 0h-2l-16 12c-2 2-2 6 0 8s6 2 8 0l12-10z m0-137l26 31c0 2 4 2 6 0s2-5 0-7l-28-34c-2-2-4-2-6 0h-2l-16 14c-2 2-2 4 0 6s6 2 8 0l12-10z m2-136l24 30c2 2 6 2 8 0 2 0 2-4 0-6l-28-34c-2-2-4-2-8 0l-16 14c-2 2-2 6 0 6 2 2 6 4 8 2l12-12z m110 436h239c4 0 8-4 8-8v-25c0-4-4-8-8-8h-239c-4 0-8 4-8 8v25c0 4 4 8 8 8z m0-135h239c4 0 8-4 8-10v-22c0-6-4-10-8-10h-239c-4 0-8 4-8 10v22c0 6 4 10 8 10z m0-143h239c4 0 8-4 8-8v-24c0-6-4-8-8-8h-239c-4 0-8 2-8 8v24c0 4 4 8 8 8z m0-138h239c4 0 8-4 8-8v-24c0-4-4-8-8-8h-239c-4 0-8 4-8 8v24c0 4 4 8 8 8z m-4 669h115c2 2 2 6 2 10 0 14-6 26-17 36-12 10-26 16-42 16s-32-6-42-16-16-22-16-36v-10z m197-105v-10c0-8-6-14-14-14h-249c-8 0-14 6-14 14v10h-109v-715h484v715h-98z" horiz-adv-x="618" />

<glyph glyph-name="locked" unicode="&#xe806;" d="M40 545h35c-1 8-1 18-1 26 0 76 29 146 79 197 49 50 118 82 194 82 75 0 144-32 192-82 50-51 81-121 81-197 0-8-1-18-1-26h35c23 0 41-18 41-41v-614c0-21-18-40-41-40h-614c-22 0-40 19-40 40v614c0 23 18 41 40 41z m306-204c51 0 91-42 91-92 0-40-25-74-59-87v-111c0-18-16-32-34-32s-32 14-32 32v113c-34 13-58 46-58 85 0 50 41 92 92 92z m-174 204h348c1 8 1 18 1 26 0 50-20 96-51 128-32 33-76 54-123 54-49 0-93-21-124-54-32-32-52-78-52-128 0-8 0-18 1-26z" horiz-adv-x="695" />

<glyph glyph-name="locked-unknown" unicode="&#xe807;" d="M355 850c76 0 144-33 193-86 49-53 78-125 78-204 0-5 0-10 0-14h27c24 0 43-20 43-43v-611c0-23-19-42-43-42h-610c-24 0-43 19-43 42v611c0 23 19 43 43 43h41c0 4 0 9 0 14 0 79 30 151 78 204 49 53 118 86 193 86z m20-737v14c-1 30 9 56 34 85 27 31 55 62 55 109 0 50-36 96-115 96-41 0-77-11-100-26l19-56c16 12 42 19 64 19 35 0 53-18 53-45 0-24-17-47-41-76-30-35-42-70-38-104l0-16h69z m-36-138c30 0 49 22 49 49-1 30-20 50-49 50-27 0-48-20-48-50 0-27 20-49 48-49z m-159 571h351c0 4 0 9 0 14 0 54-20 104-53 139-31 34-75 56-123 56-48 0-91-22-123-56-32-35-53-85-53-139 0-5 1-10 1-14z" horiz-adv-x="696" />

<glyph glyph-name="ok" unicode="&#xe808;" d="M477 122l590 688c39 48 111 53 159 13 47-40 52-112 12-159l-663-774c-40-47-112-53-159-12-3 2-6 4-8 7l-369 313c-47 41-53 115-9 159s112 49 159 9l288-244z" horiz-adv-x="1265" />

<glyph glyph-name="cancel" unicode="&#xe809;" d="M39 61l303 290-303 291c-49 46-52 123-6 169 47 49 124 52 173 6l313-299 311 299c49 46 126 43 173-6 46-46 43-123-6-169l-303-291 303-290c49-46 52-124 6-172s-124-52-173-6l-311 299-313-299c-49-46-126-43-173 6s-43 126 6 172z" horiz-adv-x="1036" />

<glyph glyph-name="screw" unicode="&#xe80a;" d="M905 546l-333 251c54 70 173 61 226 20-28-33-74-74-28-107 41-29 70 25 94 62 62-62 91-152 41-226z m-403-354l-70 12-12 58v20l131-20-49-70z m-99-206l-61-136c-21 25-74 70-87 95l50 33 107 74c8-25 8-37-9-66z m181 313c-20 4-160 33-177 37 5 45-16 41 5 74 24 0 205-37 222-46l-50-65z m-329-301l-33-20c-12 24-8 57-16 78l29 20 156 107 12-82-148-103z m-37 124l-16-13c-9 21 0 25-13 41 4 9 0 0 4 13l-8 24c13 17 165 120 190 128l8-82-165-111z m445 288l-219 41 54 70 218-45-53-66z m-301-46l-181-119c-4 12-8 54-12 66 0 25 29 37 53 49 29 21 107 83 132 91 0-25 12-58 8-87z m383 153l-218 41 82 111 161-119-25-33z m-395-17l-189-123c-5 24-21 119-17 136 33 4 62 12 99 16 29 4 74 12 99 12l8-41z m-346 21c0 16-4 29-4 37 49 8 103 16 152 25l116 16c16 4 24 4 41 8l160 21 8-41-353-50c-33-4-87-20-120-16z m506 251l29 33 383-284-25-33-387 284z m-201-152c-62-17-144-21-210-33-21-4-54-13-74-9 12 83 16 107 103 161 16 4 24 8 41 16 4-20 4-37 8-57 12-66 86-45 82 4 0 20-8 41-8 62 78 8 177-46 185-128l-127-16z" horiz-adv-x="930" />

<glyph glyph-name="snow" unicode="&#xe80b;" d="M407 728l-95 48c-10-21-42-69-42-85l69-37c26-16 47-26 68-42v-175c-21 6-58 32-79 43l-63 31c-6 11-16 6-16 22v153h-90c0-21-6-26-6-48v-58c-37 21-68 43-105 64-16-32-32-59-48-85 21-11 95-53 101-63-11-11-69-48-85-48 5-21 32-69 42-85 37 6 127 74 148 74 11 0 127-79 149-84v-11c-37-5-127-79-154-79-16 0-111 69-143 79-5-32-37-58-42-85l69-37c16-10 10-5 16-21-22-5-80-47-101-53 5-16 11-26 21-42 6-11 21-32 27-42l111 58v-101c32-10 42-5 79-5 16 0 16 11 11 21-6 74 0 80 0 143 21 5 132 79 158 85v-180c-15 0-121-64-137-80 5-10 10-21 21-37 5-16 16-26 21-42 16 0 32 16 48 21l47 32v-127h85c21 5 16 32 16 122 21-6 58-43 90-48 5 21 42 58 42 85l-132 74v180c32-16 58-32 90-53 16-5 32-16 48-27 10-5 10 0 15-15 6-22 0-127 0-154l90 5v101c22-5 43-21 59-27 10-10 42-31 58-31 5 21 37 58 42 84-10 0-95 48-100 64 26 5 52 37 84 47-16 27-32 53-42 85-37-10-122-79-148-79 0 0-138 74-148 90 26 10 47 26 68 42 96 53 69 58 149 5 21-10 58-31 79-37 10 21 42 69 42 85-26 5-69 42-84 48v5c10 5 15 5 26 10l74 48-42 79c-21 0-43-15-58-26s-43-27-59-32v106h-90v-106c0-26-5-32-5-58-26-16-132-79-148-85v180l132 74c-5 32-37 69-42 85l-90-48c0 37 0 90-5 122h-96v-122z" horiz-adv-x="910" />

<glyph glyph-name="home" unicode="&#xe80c;" d="M173 337h146v-248c-84 13-182 18-301 4l-18-70c606 62 620-323 1319-102v62c-98-31-182-45-253-53v407h124c18 0 0 0 14 4-5 22-102 106-129 129-40 44-84 88-128 132l-261 248c-13-4-22-18-31-26l-164-160c-22-22-44-40-66-66-22-18-40-40-62-62l-133-128-31-31c-13-9-26-18-26-40z m411-328v142h208v-213c-75 18-142 45-208 71z" horiz-adv-x="1319" />

<glyph glyph-name="pin" unicode="&#xe80d;" d="M371 850c217 0 382-165 382-371 0-217-361-629-372-629s-381 412-381 629c0 206 165 371 371 371z m0-103c155 0 279-124 279-268 0-155-124-278-279-278-144 0-268 123-268 278 0 144 124 268 268 268z" horiz-adv-x="753" />

<glyph glyph-name="water" unicode="&#xe80e;" d="M153 239s0-50 51-50v-102h-51v51h-51v51 152c0 51 0 51 51 102 0 51 0 102 51 102l50 152v-101c0-51 0-51-50-102v-102c0-51 0-51-51-102v-51z m-153 51v-101c0-51 51-51 51-51v-51l51-51c51 0 51-51 51-51h254c51 0 51 51 51 51h51l51 51s0 51 51 102c0 101 0 152-51 254v51l-51 51-51 51v50l-51 102c-51 0-51 51-51 51l-51 51-51-51v-51h-50v-51l-51-51v-50h-51v-51s0-51-51-51v-51c0-51 0-51-51-51v-102z" horiz-adv-x="695" />

<glyph glyph-name="renter" unicode="&#xe810;" d="M171 339h147v-251c-83 13-178 19-299 3l-19-70c606 61 622-327 1324-101l-3 60c-96-28-178-44-254-54v413h127c16 0 0-3 12 3-6 19-101 102-127 127-41 45-85 89-130 130l-260 251c-16-3-22-16-35-29l-162-158-63-64c-23-22-45-44-67-63l-130-127-32-32c-13-13-25-19-29-38z m381 22h267c22 0 38-19 38-41v-267c0-22-16-41-38-41h-35v187c0 3-3 7-6 7s-7-4-7-7v-187h-171v187c0 3-3 7-6 7s-7-4-7-7v-187h-35c-25 0-41 19-41 41v267c0 22 16 41 41 41z m131 213c57 0 101-45 101-102 0-54-44-101-101-101-54 0-102 47-102 101 0 57 48 102 102 102z" horiz-adv-x="1324" />

<glyph glyph-name="groups" unicode="&#xe811;" d="M57 419h365c31 0 55-24 55-57v-365c0-31-24-55-55-55h-46v253c0 5-5 9-9 9s-9-4-9-9v-253h-237v253c0 5-2 9-7 9-6 0-8-4-8-9v-253h-49c-33 0-57 24-57 55v365c0 33 24 57 57 57z m180 293c77 0 141-62 141-139s-64-138-141-138-138 61-138 138 61 139 138 139z m502-293h367c30 0 54-26 54-57v-365c0-31-24-57-54-57h-47v255c0 5-4 7-8 7s-9-2-9-7v-255h-238v255c0 5-4 7-8 7s-9-2-9-7v-255h-48c-31 0-55 26-55 57v365c0 31 24 57 55 57z m182 293c77 0 138-64 138-141 0-75-61-139-138-139s-139 64-139 139c0 77 62 141 139 141z m-578-244h466c39 0 72-31 72-71v-468c0-39-33-72-72-72h-59v325c0 4-5 11-9 11-7 0-11-7-11-11v-325h-304v325c0 4-4 11-11 11s-11-7-11-11v-325h-61c-40 0-73 33-73 72v468c0 40 33 71 73 71z m233 373c97 0 178-79 178-176 0-98-81-178-178-178-99 0-178 80-178 178 0 97 79 176 178 176z" horiz-adv-x="1160" />

<glyph glyph-name="sub-meter-readings" unicode="&#xe812;" d="M627 536h-24v97h-24l-72-97v-24h72v-24h24v24h24v24z m-96 0l48 49v24-73h-48z m-266 25l25 24c0 24-25 48-49 48s-24-24-48-24h48s24 0 24-24-24-24-48-24v-25c24 0 48 0 48-24l-24-24c-24 0-24 0-48 24v-24s24-24 48-24 49 24 49 48-25 49-25 49z m169 0h-48v48h72v24h-72l-24-72h24c24 0 48-25 48-49 0 0-24-24-48-24 0 0-24 0-24 24v-24l24-24c48 0 72 24 72 72l-24 25z m338-25h-72v-72h48c0 24-24 24-24 24v24h48v24z m0 73v48h-24v-48h-48l24 48h-24l-24-48v-24h72v-24h24v48z m-289 241c-266 0-483-217-483-482s217-483 483-483 482 217 482 483-217 482-482 482z m193-193h120v-217h-120v217z m-169 0h120v-217h-120v217z m-169 0h120v-217h-120v217z m-169 0h145v-217h-145v217z m603-579l-72 72-24-24 72-72c-72-73-145-97-241-121v121h-49v-121c-72 24-168 48-241 97l73 96-25 24-72-96c-48 72-96 121-121 217h97v24h-97v73h362v-25l121-241-24 266h386c0-25-24-49-24-73h-97v-24h97c-24-72-49-145-121-193z m338-169v48h-24l-24-48h24v-24h24v24z m-24 0v24c0 24 0 24 24 24-24 0-24 0-24-24v-24z m-145 24v24h-24 24c0-24 0-24-24-24 24 0 24 0 24-24h-24v-24c24 0 48 24 48 24 0 24-24 24-24 24z m72 0v24h24-48v-24h24v-24h-24v-24h24l24 24c0 24 0 24-24 24z m169-24h-24v-24h0v24h24z m24 48h-24v24-24h-24v24-24h24v-24 24h24z m-144 121c-145 0-242-121-242-241s97-242 242-242c120 0 217 121 217 242s-97 241-217 241z m72-97h72v-96h-72v96z m-72 0h72v-96h-72v96z m-73 0h48v-96h-48v96z m-96 0h72v-96h-72v96z m313-289l-48 24 24-48c-24-24-72-24-120-48v72h-25v-72c-48 24-72 24-120 48l48 48h-24l-24-24c-24 24-48 48-73 96h49v25h-49v24h193l49-121v121h169v-24h-49v-25h49c-25-48-25-72-49-96z" horiz-adv-x="1030" />

<glyph glyph-name="electricity" unicode="&#xe813;" d="M57-36c-18 55-36 110-39 118-5 12 11 18 54 18h61l59 118c32 65 58 121 58 125s-56 7-125 7-125 3-125 6c0 11 213 473 222 484 6 7 42 10 81 7l71-4-89-183-89-185h132c73 0 130-6 130-14 0-7-40-87-90-179-50-90-90-169-90-174s22-8 50-8 47-6 44-12c-5-19-255-224-271-224-7 0-27 46-44 100z" horiz-adv-x="458" />

<glyph glyph-name="gas" unicode="&#xe814;" d="M250-150c-83 0-83 83-83 83-84 84 0 167 0 250l83 84 83-84s0 84 84 167v167c83-84 250-334 166-500-83-84-83-167-166-167h83l83 83c167 167 84 417 0 584-83 83-166 250-250 250 0 83 0 83-83 83v-167c-83-83-83-83-83-166l-167-167c0-167 0-333 83-417 84 0 84-83 167-83z" horiz-adv-x="667" />

<glyph glyph-name="meter-readings" unicode="&#xe82f;" d="M661 519h-17v86c0 0-1 1-1 1h-19c0 0-1 0-1-1l-57-89c0 0-1 0-1 0v-13c0 0 1-1 1-1h60v-37c0-1 0-1 0-1h17c0 0 1 0 1 1v37h17c0 0 1 1 1 1v15c0 0-1 1-1 1z m-76 0l31 47c4 6 7 12 10 18 0-6 0-13 0-19v-46h-41z m-268 21c15 6 24 18 24 32 0 17-12 34-40 34-15 0-29-6-36-11-1 0-1 0-1-1l5-13c0-1 0-1 1-1 0 0 0 0 0 0 6 5 17 9 27 9 15 0 24-7 24-20 0-16-18-22-30-22h-11c0 0 0 0 0-1v-14c0 0 0-1 0-1h11c16 0 34-6 34-26 1-7-2-13-6-18-6-5-14-8-24-8-13 0-25 5-30 9 0 0 0 0 0 0-1 0-1-1-1-1l-5-14c0-1 0-1 0-1 7-5 21-10 36-10 35 0 51 22 51 42 0 18-11 32-29 36z m165 7c-8 5-19 8-31 8-4 0-7 0-10-1l5 34h53c0 0 0 1 0 1v16c0 0 0 1 0 1h-67c0 0-1-1-1-1l-9-67c0 0 0 0 0 0 1-1 1-1 1-1l1 0c5 1 11 2 18 2 25 0 39-11 40-30 0-20-17-30-33-30-12 0-23 4-29 8 0 0-1 0-1 0 0 0 0 0 0-1l-5-14c0 0 0-1 0-1 7-4 19-8 35-8 31 0 53 20 53 48 0 16-7 29-20 36z m327-30h-66c0 0 0-1 0-1l-9-65c0-1 0-1 0-1 0 0 1 0 1 0l2 0c4 1 10 1 17 1 14 0 25-3 31-10 0 0 0-1 1-1h22c0 0 0 1 0 1 1 0 1 0 1 1-4 7-10 13-17 17-8 5-18 8-29 8-5 0-8 0-11-1l5 34h52c0 0 0 0 0 0v16c0 0 0 1 0 1z m7 72h-17v38c0 1 0 1-1 1h-16c-1 0-1 0-1-1v-38h-41l26 38c0 0 0 0 0 0s-1 1-1 1h-17c0 0 0 0 0 0l-27-42c0 0 0 0 0 0v-13c0 0 0-1 1-1h59v-37c0 0 0-1 1-1h16c1 0 1 1 1 1v37h17c1 0 1 1 1 1v15c0 0 0 1-1 1z m-280 230c-256 0-463-207-463-463s207-463 463-463 463 207 463 463-207 463-463 463z m171-188h124v-194h-124v194z m-156 0h125v-194h-125v194z m-155 0h124v-194h-124v194z m-156 0h125v-194h-125v194z m578-557l-69 69-24-24 68-68c-65-56-149-90-240-94v101h-34v-101c-89 4-171 37-236 90l72 72-24 24-73-73c-53 50-91 116-109 189h91v34h-98c-4 20-5 42-5 63h344c1-7 3-13 7-19l0-1 123-220-25 240h349c0-21-1-43-5-63h-99v-34h92c-17-71-54-135-105-185z" horiz-adv-x="1065" />
</font>
</defs>
</svg>
